#TITLE:Heartbreak Armageddon;
#SUBTITLE:Joe D;
#ARTIST:Dragonforce;
#TITLETRANSLIT:;
#SUBTITLETRANSLIT:;
#ARTISTTRANSLIT:;
#CREDIT:;
#BANNER:french-bn.JPG;
#BACKGROUND:french-bg.jpg;
#LYRICSPATH:;
#CDTITLE:Joe D Original.PNG;
#MUSIC:Heartbreak Armageddon.mp3;
#OFFSET:-0.040;
#SAMPLESTART:100.000;
#SAMPLELENGTH:12.000;
#SELECTABLE:YES;
#BPMS:0.000=195.001,744.000=150.001,954.500=195.001;
#STOPS:968.500=0.340
;
#BGCHANGES:;
// cache tags:
#FIRSTBEAT:0.000;
#LASTBEAT:1424.500;
#SONGFILENAME:Songs/Music V.I.P ^_^/(Joe D)Heartbreak Armageddon/Heartbreak Armageddon.sm;
#HASMUSIC:1;
#HASBANNER:1;
#MUSICLENGTH:462.607;
// end cache tags

//---------------dance-single - ----------------
#NOTES:
     dance-single:
     :
     Hard:
     12:
     1.000,1.000,0.642,1.000,1.000,3448.000,297.000,640.000,0.000,13.000:
1001
0010
0100
0010
0001
0010
1001
0100
0010
0100
0001
0100
1001
0010
0100
1000
,
0120
0000
0000
0000
,
0130
0010
0100
0010
0100
1000
0100
0010
,
0001
1000
0001
1000
0001
1000
0100
0010
,
0001
0100
0001
0100
0001
0010
0100
1000
,
0100
0010
0100
0010
0100
1000
0100
0010
,
0001
0100
0001
0100
0001
0100
1000
0100
,
0010
0001
1000
0001
1000
0001
0010
0100
,
0010
1000
0010
1000
0010
0100
1000
0100
,
0010
0001
0010
0100
1000
0100
0010
0001
,
0020
0000
0000
0000
,
0000
0000
0000
0000
0000
0030
2000
3200
,
0320
0000
0000
0032
0000
0000
2003
0000
,
3020
0000
0000
0230
0000
0000
0302
0000
,
2003
0000
3200
0320
,
0030
2000
3200
0320
,
0000
0000
2030
0000
3001
1000
0001
0100
,
0001
1000
0001
0100
0001
0010
0001
0010
,
0200
0000
0000
0000
0301
0000
0002
0023
,
0230
0000
0000
0000
1300
0000
0100
0010
,
0001
0010
0100
0001
0010
0100
0010
0001
,
1000
0100
0010
0100
1000
0001
0010
0100
,
0020
0000
0000
0000
,
0000
0000
0000
0000
,
2030
3200
0320
0230
2300
3002
0023
0230
0320
0032
2003
3200
0320
0230
2300
3002
,
0023
0230
0320
0032
2003
3200
0320
0230
2300
3002
0023
0230
0320
0032
0023
0230
,
2300
0000
0000
3200
,
2300
0000
3020
0032
0000
0000
0000
0000
,
0023
0000
0000
0030
0200
0000
0320
0000
,
0230
0000
0320
0032
0000
0000
0000
0000
,
2003
0000
0000
3200
0000
0000
0320
0000
,
0032
0000
0000
0023
0000
0030
2000
0000
,
3200
0320
0000
0032
0000
0000
0000
0000
,
1003
0100
1000
0010
1000
0001
0100
0001
1000
0100
1000
0001
0010
0001
0100
0001
,
2000
0000
0000
3200
,
0302
0023
0230
2300
0000
0000
0000
0000
,
3200
0000
0000
0000
0000
0000
0000
0320
0000
0000
0000
0000
0032
0000
0000
0000
,
1003
0100
1000
0100
0001
0010
0001
0010
0200
0000
0000
0000
0000
0000
0000
0000
,
1300
0100
0001
0010
1000
0100
0001
0010
1000
0100
0001
0010
1000
0100
0001
0010
,
1000
0100
0001
0010
1000
0100
0001
0010
1000
0100
0010
0001
0020
0000
0000
0000
,
1031
0000
0000
0000
0000
0000
0110
1001
,
0000
0000
0000
0000
0000
0000
1001
0011
,
0000
0000
0000
0000
0000
0000
0000
0000
0000
0000
0000
0000
0000
0000
0000
0000
0000
0000
0000
0000
0000
0000
0000
0000
0000
0000
0000
0000
0000
0000
0000
0000
2000
3000
0000
0000
0002
0003
0000
0000
2000
3000
0000
0000
0002
0003
0000
0000
2000
3000
0000
0000
0000
0000
0000
0000
0000
0000
0000
0000
0000
0000
0000
0000
,
2020
0000
0000
3030
0202
0000
0000
0303
,
1001
0000
1001
1001
1001
1001
1001
1001
,
0001
0100
0010
0100
0001
0100
0010
0100
0001
0100
0010
0100
0001
0100
0010
0100
,
1001
0000
0000
0000
,
0000
0000
0000
0000
,
0011
0000
0000
0000
,
1000
0100
1000
0100
1000
0100
0010
0100
0010
0001
0010
0001
0010
1000
0001
1000
,
0110
0000
0000
0000
,
0000
0000
0000
0000
,
1001
0000
0000
0000
,
1000
0010
1000
0001
1000
0010
1000
0001
1000
0010
1000
0001
1000
0010
1000
0001
,
1000
0100
0010
0001
0010
1000
0100
1000
0001
0010
0100
0010
0001
0100
0001
1000
,
0001
1000
0110
0000
0000
0000
0110
0000
1001
0000
0000
0000
0110
0000
1010
0000
,
1000
0010
1000
0001
1000
0010
1000
0001
1000
0010
1000
0001
1000
0010
1000
0001
,
0110
1100
0000
0011
0110
1100
0202
0000
,
1303
0010
0001
0010
0100
0010
0001
0010
0100
1000
0001
0100
0001
1000
0100
1000
,
0110
1001
0000
0110
1001
0000
0011
0110
,
0002
0000
0000
0000
0000
0000
0023
0230
,
2300
3200
0320
0032
,
0013
0100
1000
0100
1000
0001
0010
0100
1000
0100
1000
0100
0010
0001
0010
0100
,
0010
0001
1000
0001
0100
0010
0100
0001
1000
0001
0010
0100
1000
0001
0100
0001
,
0010
0100
1000
0001
1000
0001
0010
0001
0100
0001
0010
0100
1000
0100
1000
0010
,
1000
0100
0010
0100
1000
0001
0010
0100
0010
0001
1000
0100
0010
0100
0010
0001
,
0010
0100
1000
0100
1000
0001
1000
0100
0010
0001
1000
0100
1000
0001
0100
0001
,
0010
0100
0010
0100
1000
0100
0010
0001
0010
0001
0100
0010
0100
0001
0010
0100
,
0001
0010
0001
1000
0001
0010
0001
0100
0001
1000
0001
0100
0001
0010
0001
0000
,
1010
0101
0000
0110
1001
0000
1001
0000
,
0110
1000
0011
0100
1001
0001
1100
0001
,
0110
1000
0101
1000
0011
0100
1001
0010
,
1100
0001
0110
1000
0011
0100
0110
0010
,
1001
0100
0011
1000
0110
0100
1001
0010
,
0110
0001
1010
0100
0011
1000
0110
0010
,
1001
0010
1100
0001
0110
1000
0011
0100
,
0100
0010
0100
0010
0100
0010
1000
0001
1000
0001
1000
0001
1000
0010
1000
0010
,
1000
0100
0010
0001
0010
0100
1000
0100
0010
0001
1000
0100
0001
0010
1000
0100
,
2001
0000
0100
0000
0001
0010
0001
0000
0100
0000
0010
0000
0001
0100
0010
0000
,
0001
0000
0100
0000
0001
0010
0100
0000
0100
0000
0010
0000
0001
0010
3001
0000
,
0210
0000
0010
0000
0001
0010
0001
0000
1000
0000
0001
0000
0010
0001
1300
0000
,
1002
0000
0010
0000
1000
0010
1000
0000
0010
0000
0100
0000
1000
0100
1000
0000
,
0123
0000
1000
0000
0001
1000
0001
0000
0100
0000
0001
0000
1000
0001
1000
0000
,
0100
0000
0001
0000
1000
0100
1000
0000
0001
0000
1000
0000
0001
1000
0031
0000
,
0210
0001
0010
0001
0010
0001
0010
0001
0010
0001
0010
0001
0010
0001
0010
0301
,
2010
0100
0010
0100
0010
0100
0010
0100
0010
0100
0010
0100
0010
0100
3010
0100
,
1010
0000
0110
0011
0000
0110
0011
0000
,
1001
0000
0110
0011
0000
1001
1100
0000
,
0110
0000
0011
1100
0000
0110
1001
0000
,
2001
0001
0001
0001
,
3011
0000
1100
0000
0110
0000
1010
0110
,
0101
0000
0110
0000
1010
0000
0101
1100
,
1001
0000
0110
0110
0110
0110
0110
0110
,
1000
0100
0010
0001
0100
0001
0010
0100
1000
0010
1000
0100
0010
0001
1000
0001
,
0210
0000
1000
0000
0010
0001
0010
0000
0001
0000
1000
0000
0001
1000
0301
0000
,
2100
0000
0010
0000
0100
0001
0100
0000
0010
0000
0100
0000
0010
0100
3010
0000
,
0201
0000
0010
0000
1000
0001
1000
0000
0001
0000
1000
0000
0010
0001
0310
0000
,
1002
0000
0010
0000
1000
0010
1000
0003
0210
0000
0001
0000
0010
1000
0310
0000
,
2001
0000
0010
0000
0001
0010
0001
0000
0100
0000
0010
0000
0001
0100
3001
0000
,
0120
0000
0100
0000
1000
0100
1000
0000
0100
0000
1000
0000
0001
1000
0031
0000
,
1000
0001
1000
0001
1000
0001
0010
1000
0010
1000
0010
1000
0100
0010
0100
0010
,
0100
0001
0100
0001
0100
0001
0010
0100
0010
0100
0010
1000
0001
1000
0001
1000
,
0001
0010
0100
1000
0100
0001
0010
0001
1000
0001
1000
0100
1000
0100
0010
0100
,
0010
0001
1000
0001
0010
0100
1000
0010
0001
0010
0100
0010
0001
1000
0001
0010
,
1001
1001
0200
0302
2003
3002
0203
0320
,
1031
0000
1001
0000
0011
0000
0110
0000
1001
0000
0000
0000
0100
0010
0100
0010
,
2001
0000
0100
0000
0001
0010
0001
0000
0010
0000
0100
0000
0010
0001
3010
0000
,
0102
0000
1000
0000
0100
0010
0100
0000
1000
0000
0100
0000
0010
0100
0013
0000
,
1000
0100
0010
0001
0010
0001
1000
0100
0010
0001
0010
0001
1000
0100
0010
0001
,
0010
0001
0010
0100
1000
0100
1000
0001
0010
0100
1000
0100
1000
0001
0010
0100
,
1000
0100
1000
0001
0010
0001
0100
0010
0100
1000
0001
1000
0100
0010
0001
0010
,
1000
0100
1000
0001
0010
0001
0100
0010
0100
0001
0010
0100
1000
0100
0010
0001
,
2000
0000
3200
0000
0320
2030
3200
0320
,
0032
0203
0320
2030
3200
0000
0000
0000
,
1300
0001
1000
0100
0010
0001
0010
0100
0010
0001
1000
0001
0100
0010
0100
1000
,
0100
0001
0010
0001
0100
0010
0100
1000
0100
0001
0010
0001
1000
0001
1000
0100
,
0020
0230
2300
3002
0203
0320
2030
3002
,
2003
3200
0320
0032
0023
0000
0000
0000
,
1030
0001
1000
0100
0010
0001
0010
0001
1000
0100
1000
0100
0010
0100
0010
0001
,
0010
0100
1000
0100
1000
0010
0001
0010
0100
0010
0100
1000
0002
0000
0000
0000
,
2003
0000
0000
0000
3200
0000
0000
0000
0320
0000
0000
0000
2030
0000
0000
0000
3200
0000
0000
0000
0302
0000
0000
0000
0023
0000
0000
0000
0230
0000
0000
1300
,
0100
0000
0000
0000
0000
0010
0100
0000
0000
0000
0000
0100
0010
0000
0000
0000
0000
0010
0002
0000
0000
0000
0000
0000
0000
0000
0000
0000
0000
0000
0000
0000
,
0103
0010
1000
0100
1000
0001
0010
0001
1000
0001
0100
0010
0001
1000
0100
1000
0001
0010
0001
0100
0010
0100
1000
0001
,
1000
0100
0010
0001
0010
0100
1000
0100
0001
1000
0001
0100
0010
0001
1000
0100
1000
0001
0010
0001
0100
0010
0100
1000
,
0200
0320
0000
2030
3002
2003
3200
0000
,
0320
0032
0000
2003
3002
0023
0230
0000
,
1301
0000
1001
0000
0000
0000
0100
0010
0100
0000
0010
0000
0000
0000
1000
0100
,
1000
0100
1001
0000
0011
0000
0110
0000
,
1001
0000
0000
0000
0000
0000
0000
0000
1001
0000
0000
0000
0000
0000
0000
0000
0000
0000
0000
0000
0000
0000
0000
0000
0100
0000
0000
0000
0010
0000
0000
0000
0100
0000
0000
0000
0000
0000
0000
0000
0010
0000
0000
0000
0000
0000
0000
0000
0000
0000
0000
0000
0000
0000
0000
0000
0200
0300
0000
0000
0020
0030
0000
0000
,
0200
0300
0000
0000
0002
0003
0000
0000
0020
0030
0000
0000
0200
0300
0000
0000
2000
3000
0000
0000
0002
0003
0000
0000
2000
3000
0000
0000
0200
0300
0000
0000
0020
0030
0000
0000
0002
0003
0000
0000
2000
3000
0000
0000
0002
0003
0000
0000
0020
0030
0000
0000
0200
0300
0000
0000
2000
3000
0000
0000
0002
0003
0000
0000
,
2000
3000
0000
0000
0200
0300
0000
0000
1010
0000
0000
0000
0001
0000
0000
0000
0010
0000
0000
0000
1000
0000
0000
0000
0100
0000
0000
0000
1000
0000
0000
0000
0001
0000
0000
0000
0010
0000
0000
0000
0100
0000
0000
0000
0010
0000
0000
0000
0001
0000
0000
0000
0100
0000
0000
0000
0001
0000
0000
0000
1000
0000
0000
0000
,
0001
1000
0110
0000
0000
0000
0110
0000
1001
0000
0000
0000
0110
0000
1010
0100
,
0010
1000
0001
0100
0010
1000
0001
0100
0010
1000
0001
0100
0010
1000
0001
1000
,
0110
1100
0000
0011
0110
1100
0202
0000
,
1303
0010
0001
0010
0100
0010
0001
0010
0100
1000
0001
0100
0001
1000
0100
1000
,
0101
0011
0000
0011
1001
0000
0110
1001
,
1000
0100
0010
0001
1000
0100
1000
0001
0010
0001
0010
0100
1000
0001
1000
0010
,
0200
0300
0000
0000
0020
0030
0000
0000
0200
0300
0000
0000
2000
0000
3000
0000
0200
0300
0000
0000
0020
0030
0000
0000
0002
0003
0000
0000
2000
3000
0000
0000
0002
0003
0000
0000
2000
3000
0000
0000
0200
0300
0000
0000
2000
3000
0000
0000
0002
0003
0000
0000
0020
0030
0000
0000
0200
0300
0000
0000
0002
0003
0000
0000
,
0010
0100
1000
0100
1000
0001
0010
0100
1000
0100
1000
0100
0010
0001
0010
0100
,
0010
0001
1000
0001
0100
0010
0100
0001
1000
0001
0010
0100
1000
0001
0100
0001
,
0010
0100
1000
0001
1000
0001
0010
0001
0100
0001
0010
0100
1000
0100
1000
0010
,
1000
0100
0010
0100
1000
0001
0010
0100
0010
0001
1000
0100
0010
0100
0010
0001
,
0010
0100
1000
0100
1000
0001
1000
0100
0010
0001
1000
0100
1000
0001
0100
0001
,
0010
0100
0010
0100
1000
0100
0010
0001
0010
0001
0100
0010
0100
0001
0010
0100
,
0001
0010
0001
1000
0001
0010
0001
0100
0001
1000
0001
0100
0001
0010
0001
0100
,
0010
0000
0000
0000
0001
0000
0000
0000
0010
0000
0000
0000
0100
0000
0000
0000
2000
3000
0000
0000
0002
0003
0000
0000
2000
3000
0000
0000
0020
0030
0000
0000
0002
0003
0000
0000
0020
0030
0000
0000
0200
0300
0000
0000
0020
0030
0000
0000
0200
0300
0000
0000
2000
3000
0000
0000
0002
0003
0000
0000
2000
3000
0000
0000
,
0011
1000
0011
0100
1001
0001
1100
0001
,
0110
1000
0101
1000
0011
0100
1001
0010
,
1100
0001
0110
1000
0011
0100
0110
0010
,
1001
0100
0011
1000
0110
0100
1001
0010
,
0110
0001
1010
0100
0011
1000
0110
0010
,
1001
0010
1100
0001
0110
1000
0011
0100
,
0100
0010
0100
0010
0100
0010
1000
0001
1000
0001
1000
0001
1000
0010
1000
0010
,
1000
0100
0010
0001
0010
0100
1000
0100
0010
0001
1000
0100
0001
0010
1000
0100
,
2001
0000
0100
0000
0001
0010
0001
0000
0100
0000
0010
0000
0001
0100
0010
0000
,
0001
0000
0100
0000
0001
0010
0100
0000
0100
0000
0010
0000
0001
0010
3001
0000
,
0210
0000
0010
0000
0001
0010
0001
0000
1000
0000
0001
0000
0010
0001
1300
0000
,
1002
0000
0010
0000
1000
0010
1000
0000
0010
0000
0100
0000
1000
0100
1000
0000
,
0123
0000
1000
0000
0001
1000
0001
0000
0100
0000
0001
0000
1000
0001
1000
0000
,
0100
0000
0001
0000
1000
0100
1000
0000
0001
0000
1000
0000
0001
1000
0031
0000
,
0210
0001
0010
0001
0010
0001
0010
0001
0010
0001
0010
0001
0010
0001
0010
0301
,
2010
0100
0010
0100
0010
0100
0010
0100
0010
0100
0010
0100
0010
0100
3010
0100
,
1010
0000
0110
0011
0010
0110
0011
0000
,
1001
0000
0110
0011
0010
1001
1100
0000
,
0110
0000
0011
1100
0100
0110
1001
0000
,
2001
0001
0001
0001
,
3011
0000
1100
0000
0110
0000
1010
0110
,
0101
0000
0110
0000
1010
0000
0101
1100
,
1001
0000
0100
0010
0100
0010
0001
0010
0100
0010
0100
0010
0001
0010
0100
0010
,
1000
0100
0010
0001
0100
0001
0010
0100
1000
0010
1000
0100
0010
0001
1000
0001
,
0210
0000
1000
0000
0010
0001
0010
0000
0001
0000
1000
0000
0001
1000
0301
0000
,
2100
0000
0010
0000
0100
0001
0100
0000
0010
0000
0100
0000
0010
0100
3010
0000
,
0201
0000
0010
0000
1000
0001
1000
0000
0001
0000
1000
0000
0010
0001
0310
0000
,
1002
0000
0010
0000
1000
0010
1000
0003
0210
0000
0001
0000
0010
1000
0310
0000
,
2001
0000
0010
0000
0001
0010
0001
0000
0100
0000
0010
0000
0001
0100
3001
0000
,
0120
0000
0100
0000
1000
0100
1000
0000
0100
0000
1000
0000
0001
1000
0031
0000
,
1000
0001
1000
0001
1000
0001
0010
1000
0010
1000
0010
1000
0100
0010
0100
0010
,
0100
0001
0100
0001
0100
0001
0010
0100
0010
0100
0010
1000
0001
1000
0001
1000
,
0001
0010
0100
1000
0100
0001
0010
0001
1000
0001
1000
0100
1000
0100
0010
0100
,
0010
0001
1000
0001
0010
0100
1000
0010
0001
0010
0100
0010
0001
1000
0001
0010
,
1001
1001
0200
0302
2003
3002
0203
0320
,
1031
0000
1001
0000
0011
0000
0110
0000
1001
0000
0000
0000
0100
0010
0100
0010
,
2001
0000
0100
0000
0001
0010
0001
0000
0010
0000
0100
0000
0010
0001
3010
0000
,
0102
0000
1000
0000
0100
0010
0100
0000
1000
0000
0100
0000
0010
0100
0013
0000
,
1000
0100
0010
0001
0010
0001
1000
0100
0010
0001
0010
0001
1000
0100
0010
0001
,
0010
0001
0010
0100
1000
0100
1000
0001
0010
0100
1000
0100
1000
0001
0010
0100
,
2002
0000
0000
0000
,
0000
0000
0000
0000
,
0000
0000
0000
0000
,
0000
0000
0000
0000
,
3003
0000
0000
0000
0000
0100
0010
0001
,
0020
0000
0000
0000
,
0000
0000
0000
0130
1000
0200
0000
0301
,
0020
0000
0000
0000
,
0000
0000
0000
0000
0000
1030
0000
0000
,
0100
0000
0000
0010
0002
0000
0000
0000
,
0003
0000
0000
1000
0001
1000
0100
0020
,
0000
0000
0000
0000
,
0000
0000
0000
0000
0030
1000
0000
0000
,
0100
0000
0000
0000
0000
0000
0000
0000
0000
0000
0000
0200
0320
0000
0000
0000
0000
0000
0000
0000
0000
0000
0000
0000
0000
0000
0000
0000
0000
0000
0000
0000
,
0000
0000
0030
0000
0000
0000
0010
0000
0100
0000
1000
0100
0010
0001
0100
0010
,
0100
0000
0000
1000
0000
0000
0100
0000
0010
0000
0100
0000
0010
0000
0001
0100
0000
0000
1000
0000
0000
0100
0000
0000
0010
0000
0000
0100
0000
0000
1000
0000
0100
0000
0010
0000
0001
0000
0000
1000
0000
0000
0001
0000
0000
0010
0000
0000
,
0100
0000
0000
1000
0000
0000
0001
0000
0010
0000
0100
0000
1000
0000
0001
0000
1000
0000
0100
0000
0010
0000
0001
0000
1000
0000
0001
0000
0010
0000
0200
0000
0000
0000
0000
0000
0000
0000
0000
0000
0000
0000
0000
0000
0000
0000
0000
0000
,
0320
0000
0000
0031
2000
0000
0000
0000
,
3000
0000
0000
0100
0010
0001
0010
0200
,
0000
0000
0000
0000
,
0300
0000
0000
0000
0000
1100
0000
0100
,
0020
0030
1000
0100
0010
0002
0000
0000
,
0013
0100
1000
0001
1000
0100
0020
0000
,
0000
0000
0030
0000
1000
0000
0000
0100
0000
0000
0010
0000
0002
0000
0000
0000
,
0000
0000
0013
0000
0000
0100
0000
0000
0010
0000
0001
0000
0010
0000
0001
0000
,
0200
0000
0000
0000
0300
0010
0100
0001
,
0010
0000
0000
0100
0000
0000
0010
0000
0000
0000
0001
0010
0002
0000
0000
0000
,
0000
0000
0000
0000
0003
0000
0010
0100
0010
0000
1000
0000
0000
0100
0000
0000
,
0010
0000
0001
0000
0000
0010
0000
0000
0100
0000
2000
0000
0000
0000
0000
0000
,
0000
3100
0010
0001
1000
0001
0020
0000
,
0200
0000
0330
0000
0000
0000
1000
0001
,
0010
0001
1000
0100
1000
0100
0010
0100
,
0001
0000
0001
1000
0001
0000
0000
0000
0010
0000
0000
0000
0001
0000
1000
0000
,
0001
0020
0000
0000
0000
1030
0002
0000
,
0023
0000
0230
0000
2300
3100
0010
0001
,
0020
0000
0000
0000
0030
1000
0002
0000
,
0013
0000
0100
0000
0010
1000
0100
0010
,
0002
0000
0000
0000
0013
0000
0100
0000
1000
0000
0002
0000
0000
0000
0103
0010
,
0100
0002
0000
0000
0013
0200
0000
0000
,
0300
0000
0000
0000
0000
0000
1000
0000
0100
0000
0010
0000
0001
0000
0000
0000
0000
0000
0001
0000
0010
0000
0100
0000
1000
0000
0000
0000
0000
0000
0200
0000
0000
0000
0000
0000
0320
0000
0000
0032
0000
0000
0023
0000
0000
0032
0000
0000
,
0023
0032
0023
0000
0000
0000
0000
0030
0000
0000
0000
0000
1000
0000
0001
0000
,
1000
0010
1000
0100
1000
0100
0020
0000
,
0000
0000
0030
1000
0001
2000
0000
0000
,
3000
0000
0200
0000
0000
0000
0000
0000
0000
0000
1300
0100
0010
0000
0001
0000
,
0000
0010
0000
0000
0100
0000
1000
0000
0100
0000
0020
0000
0000
0000
0000
0000
,
0030
0000
1000
0100
0010
0100
1000
0001
1000
0010
0001
0010
1000
0100
1000
0001
,
1000
0100
0010
0001
0010
0100
1000
0001
0010
0001
1000
0100
1000
0100
0010
0002
0000
0000
0000
0000
0000
0000
0000
0000
,
0000
0000
0000
0000
0000
0000
0000
0003
0002
0000
0000
0000
0000
0000
0000
0000
0000
0000
0000
0000
0000
0000
0000
0000
0000
0000
0000
0000
0000
0000
0000
0000
0013
0000
0000
0000
0100
0000
0000
0000
1000
0000
0000
0000
0000
0000
0000
0000
0100
0000
0000
0000
0000
0000
0000
0000
0010
0000
0000
0000
0000
0000
0000
0000
,
0100
0020
0000
0000
0000
1030
0100
0010
,
0001
0000
0000
0000
0000
0000
0000
0000
0010
0000
0000
0000
0000
0000
0000
0000
0200
0000
0000
0000
0000
0000
0000
0300
0200
0000
0000
0000
0000
0000
0000
0000
0000
0000
0000
0000
0000
0000
0000
0000
0000
0000
0000
0000
0000
0000
0000
0000
1300
0000
0000
0000
0000
0000
0000
0000
0010
0000
0000
0000
0000
0000
0000
0000
,
0001
1000
0001
0010
0100
0020
0000
0000
,
0030
0000
0000
1000
0100
0010
0001
1000
0001
0010
0100
1000
0100
0010
0001
1000
0100
1000
0010
0001
0010
0100
1000
0001
,
1000
0100
0010
0001
0010
0100
1000
0001
1000
0100
0010
0100
1000
0100
0010
0110
0000
0000
0110
0000
0000
0000
0000
0000
,
0000
0000
0000
0110
0000
1001
1001
0000
,
0000
0000
0000
1001
0000
0011
0011
0000
,
0000
0000
0000
1100
0000
0101
0101
0000
,
0000
0000
1001
0000
0000
0000
1000
0100
0010
0001
0010
0100
0010
0001
1000
0001
,
1000
0100
1000
0100
0010
0001
0010
0100
1000
0001
1000
0100
0010
0001
1000
0100
,
1000
0100
0020
0000
0000
0030
1000
0100
0010
0100
1000
0010
1000
0001
1000
0100
,
0010
0001
1000
0100
1000
0010
0001
0010
1000
0100
0010
0001
0100
0010
0100
1000
,
0001
1000
0200
0000
0000
0000
1300
0001
1000
0100
0010
0001
0010
0001
1000
0100
,
1000
0100
0010
0100
0010
0001
1000
0001
1000
0100
0010
0001
1000
0001
1000
0100
,
0010
0100
1000
0001
0010
0100
0010
0001
1000
0001
1000
0100
0010
0001
0010
0100
,
1000
0100
0010
0001
1000
0001
2000
3000
2000
3000
0200
0300
0200
0300
0020
0030
,
0020
0030
0002
0003
0002
0003
1000
1000
0001
0001
1000
1000
0001
0001
1000
1000
,
0001
0001
1000
1000
0001
0001
0020
0230
0320
0230
0320
0230
0320
0230
0320
0230
,
0320
0230
0320
0230
0320
0230
0310
0010
0100
0100
0010
0010
0100
0100
0010
0010
,
0100
0100
0010
0010
0100
0100
0010
0001
1000
0001
0010
0100
1000
0100
0010
0001
,
1000
0001
1000
0100
1000
0010
1000
1000
0010
0010
1000
1000
0010
0010
1000
1000
,
0010
0010
1000
1000
0010
0010
1000
0100
1000
0100
0010
0100
0010
0100
0010
0001
,
0010
0001
1000
0001
1000
0001
1000
0100
0010
0100
1000
0001
1000
0100
0010
0001
,
0010
0000
0000
0000
1000
0000
0000
0000
0100
0000
0000
0000
0010
0000
0000
0000
0100
0000
0000
0000
1000
0000
0000
0000
0200
0300
0020
0030
0002
0003
0000
0000
0000
0000
0000
0000
0000
0000
0000
0000
2000
3000
0200
0300
0020
0030
0000
0000
0000
0000
0000
0000
0000
0000
0000
0000
0200
0300
0020
0030
0002
0003
0000
0000
,
0000
0000
0000
0000
0000
0000
0000
0000
0000
0000
0000
0000
0000
0000
0000
0000
0000
0000
0000
0000
0000
0000
0000
0000
2000
0000
0000
0000
3000
0000
0200
0000
0000
0300
0000
0000
0020
0000
0000
0030
0000
0000
0000
0000
0000
0000
0000
0000
0000
0000
0000
0000
0000
0000
0000
0000
0000
0000
0000
0000
0000
0000
0000
0000
0000
0000
0000
0000
0000
0000
0000
0000
2000
0000
0000
0000
0000
0000
0000
0000
0000
0000
0000
0000
3200
0000
0000
0000
0000
0000
0000
0000
0000
0000
0000
0000
0320
0000
0000
0000
0000
0000
0000
0000
0000
0000
0000
0000
0030
0000
0000
0000
0000
0000
0000
0000
0000
0000
0000
0000
0002
0000
0000
0000
0000
0000
0000
0000
0000
0000
0000
0000
0000
0000
0000
0000
0000
0000
0000
0000
0000
0000
0000
0000
0200
0000
0000
0000
0000
0000
0000
0000
0000
0000
0000
0000
0323
0000
0000
0000
0000
0000
0000
0000
0000
0000
0000
0000
0230
0000
0000
0000
0000
0000
0000
0000
0000
0000
0000
0000
0300
0000
0000
0000
0000
0000
0000
0000
0000
0000
0000
0000
,
2000
0000
3200
0000
0320
0000
0032
0023
0230
0300
2000
0000
3200
0320
0032
0003
,
2000
0000
3020
0000
0230
0000
2300
3020
0230
0320
2030
3200
0320
0032
2003
3002
,
0023
0230
0320
0230
2300
0000
3200
0000
0320
0000
0032
0000
2003
0000
3002
0000
,
0023
0000
0230
0000
0302
0000
0203
2300
3002
2003
3200
0320
0230
2300
3002
2003
,
3020
0032
0023
2030
3200
2300
3002
0023
0230
2300
3200
0320
0230
0302
2003
3002
,
0023
0230
2300
3200
0320
0032
0023
0230
2300
3200
0320
0032
0023
2030
3200
2300
,
3002
0023
0230
2300
3200
0320
0230
0000
0000
0000
0000
0000
0000
0000
0000
0000
,
0000
0000
0300
2000
3200
0320
0032
0000
,
0023
0000
0030
2000
3002
2003
3200
0000
,
0320
0000
0000
0000
0030
0000
0020
0230
2300
3002
0023
0230
0320
0032
2003
3002
,
0203
0000
0000
0000
0320
0000
0000
0000
0230
0000
0000
0000
0302
0000
0000
0000
0023
0000
0000
0000
0230
0000
0000
0000
2300
0000
0000
0000
0000
0000
0000
0000
0000
0000
0000
0000
0000
0000
0000
3000
2000
0000
0000
0000
0000
0000
0000
0000
0000
0000
0000
0000
0000
0000
0000
0000
0200
3000
0000
0000
0000
0000
0000
0300
,
0020
0000
0032
0000
0023
0000
0200
2330
3002
2003
3200
0320
0230
2300
3002
2003
,
3200
0320
0032
0023
0230
2300
3200
0320
0032
0023
0230
2300
3200
0320
0230
2300
,
3002
0023
0230
0320
0032
2003
3002
0023
0230
0320
0032
0023
0230
2300
3200
0320
,
0032
2003
3002
0000
0000
0000
0023
0230
2300
3002
2003
3200
0320
0230
2300
3002
,
2003
3200
0320
0000
0000
0000
0031
0010
0100
0000
0000
0000
2000
0000
0000
0000
,
0000
0000
3100
0010
0100
0000
1000
0000
0100
0000
0010
0000
0001
0000
0020
0000
,
0000
0000
0030
1000
1000
1000
1000
0100
,
0100
0020
0000
0031
0100
1000
0001
1000
,
0100
0000
0020
0000
0000
0000
0031
0010
0100
1000
0100
0010
0100
1000
0001
1000
,
0001
0010
0001
0100
0010
0100
1000
0100
0010
0100
1000
0001
1000
0001
0010
0100
,
0010
0001
0020
0000
0000
0000
1030
0100
1000
0010
1000
0100
0010
0001
0010
0100
,
1000
0100
0010
0001
1000
0001
0010
0100
1000
0100
0010
0100
1000
0100
1000
0100
,
0010
0000
0000
0001
0000
0000
0010
0000
0000
0100
0000
0000
1000
0000
0000
0010
0000
0000
1000
0000
0100
0000
1000
0000
0100
0000
1000
0000
0100
0000
1000
0000
0100
0000
1000
0000
0100
0000
1000
0000
0100
0000
1000
0000
0100
0000
1000
0000
,
0100
1000
0100
1000
0100
1000
0100
1000
0100
0010
0100
0010
0100
0010
0100
0010
0100
0010
0001
1000
0001
1000
0001
1000
,
0001
0000
1000
0000
0001
0000
0200
0000
0000
0000
0000
0000
0320
0000
0000
0000
0000
0000
1030
0000
0000
1000
0000
0000
0001
0000
0000
0001
0000
0000
1000
0000
0000
1000
0000
0000
0001
0000
0000
0001
0000
0000
1000
0000
0000
1000
0000
0000
,
0100
0000
0000
0000
0010
0000
0000
0000
0001
0000
0000
0000
0010
0000
0000
0000
0100
0000
0000
0000
1000
0000
0000
0000
0200
0300
0200
0000
0000
0000
0000
0000
0000
0000
0000
0000
0000
0000
0000
0000
0020
0330
0020
0000
0000
0000
0000
0000
0000
0000
0000
0000
0000
0000
0000
0000
0032
0003
0002
0000
0000
0000
0000
0000
,
0000
0000
0000
0000
0000
0000
0000
0000
0020
0033
0020
0000
0000
0000
0000
0000
0000
0000
0000
0000
0000
0000
0000
0000
1030
0000
0000
0000
0100
0000
0000
0000
1000
0000
0000
0000
0010
0000
0000
0000
1000
0000
0000
0000
0001
0000
0000
0000
1000
0000
0000
0000
0010
0000
0000
0000
1000
0000
0000
0000
0100
0000
0000
0000
,
1000
0010
1000
0001
1000
0010
0100
0010
0100
0010
0100
0010
0100
0010
0100
0010
,
0100
0000
0000
0000
0010
0000
0000
0000
2000
3000
0000
0000
0200
0300
0000
0000
0020
0030
0000
0000
0200
0300
0000
0000
0002
0000
0000
0000
0000
0000
0000
0000
0000
0000
0000
0000
0000
0000
0000
0000
0000
0000
0000
0000
0000
0000
0000
0000
0023
0000
0000
0000
0000
0000
0000
0000
0000
0000
0000
0000
0000
0000
0000
0000
,
0000
0000
0000
0000
0032
0000
0000
0000
0000
0000
0000
0000
0023
0000
0000
0000
0000
0000
0000
0000
0000
0000
0000
0000
0030
0000
0000
0000
0200
0300
0200
0300
,
0200
0300
0200
0300
0200
0300
0000
0000
0000
0000
0000
0000
2000
0000
0000
3000
2000
0000
0000
0000
0000
0000
0000
0000
0000
0000
0000
0000
0000
0000
0000
0000
,
0000
3200
0000
0320
0000
0032
0000
0023
,
0000
0230
0000
2300
0000
0000
0000
0000
,
3000
0100
0100
0010
0001
0100
0010
0001
,
0010
0000
0000
0000
0000
0000
0100
0000
0000
0000
0000
0000
1000
0000
0000
0000
0000
0000
0100
0000
0000
0010
0000
0000
0001
0000
0000
0010
0000
0000
0100
0000
0000
1000
0000
0000
0100
0000
0000
0010
0000
0000
0100
0000
0010
0000
0001
0000
,
0010
0000
0100
0000
1000
0000
0100
0000
0010
0000
0001
0000
0100
0000
0000
0010
0000
0000
0100
0000
0000
0010
0000
0000
0001
0000
0000
1000
0000
0000
0100
0000
0000
0010
0000
0000
0001
0000
0000
0010
0000
0000
1000
0000
0100
0000
0010
0000
,
0100
0000
1000
0000
0010
0000
1000
0000
0100
0000
0010
0000
0001
0000
0010
0000
0100
0000
1000
0000
0000
0100
0000
0000
1000
0000
0000
0010
0000
0000
1000
0000
0000
0100
0000
0000
0001
0000
0000
0010
0000
0000
0001
0000
0000
0100
0000
0000
,
0001
1000
0001
0010
0001
0100
0001
0010
0100
1000
0100
0010
0001
0010
0100
1000
,
0100
0000
0000
0000
0010
0000
0000
0000
0001
0000
0000
0000
1000
0000
0000
0000
0001
0000
0000
0000
1000
0000
0000
0000
0200
0000
0000
0000
0000
0000
0300
0000
0200
0000
0000
0000
0000
0000
0300
0000
0200
0000
0000
0000
0000
0000
0000
0300
0200
0000
0000
0000
0000
0000
0000
0300
0200
0000
0000
0000
0000
0000
0300
0000
,
0200
0000
0000
0000
0000
0000
0000
0000
0000
0000
0000
0000
0000
0000
0000
0000
0000
0000
0300
0000
0000
0000
0000
0000
0200
0000
0000
0000
0000
0000
0000
0000
0000
0000
0000
0000
0000
0000
0000
0000
0000
0000
0300
0000
0000
0000
0000
0000
0020
0000
0000
0000
0000
0000
0000
0000
0000
0000
0000
0000
0000
0000
0000
0000
0000
0000
0000
0000
0000
0000
0000
0000
1030
0000
0000
0000
0000
0000
0000
0000
0100
0000
0000
0000
0000
0000
0000
0000
0010
0000
0000
0000
0000
0000
0000
0000
0100
0000
0000
0000
0000
0000
0000
0000
1000
0000
0000
0000
0000
0000
0000
0000
0001
0000
0000
0000
0000
0000
0000
0000
0010
0000
0000
0000
0000
0000
0000
0000
0100
0000
0000
0000
0000
0000
0000
0000
0010
0000
0000
0000
0000
0000
0000
0000
0001
0000
0000
0000
0000
0000
0000
0000
0100
0000
0000
0000
0000
0000
0000
0000
0001
0000
0000
0000
0000
0000
0000
0000
0010
0000
0000
0000
0000
0000
0000
0000
0100
0000
0000
0000
0000
0000
0000
0000
1000
0000
0000
0000
0000
0000
0000
0000
,
0100
0010
0001
0010
0100
1000
0001
1000
0100
0010
0000
0000
0020
0000
0000
0000
0000
0000
0130
0000
0000
1000
0000
0000
,
0100
0010
0001
1000
0001
0010
0100
0010
,
0001
0000
1000
0000
0010
0000
0100
0001
0100
0001
1000
0001
1000
0001
0010
0100
,
0010
0100
0010
0100
2000
0000
0000
0000
3100
0000
0010
0000
0001
0000
1000
0100
,
0010
0001
0020
0000
0230
0000
1300
0001
1000
0100
0010
0100
1000
0001
0010
0100
,
0010
0001
1000
0001
0010
0100
0020
0030
0000
0002
0003
0000
0020
0030
0000
0200
,
0300
0000
0020
0030
0200
0300
1002
0023
0230
0320
0230
2300
3002
2003
3200
0320
,
0230
2300
3200
0320
0230
0302
0023
0230
0320
0032
0023
0230
0320
0032
2003
3002
,
0023
0230
0320
0032
0023
0030
0201
0000
0000
0000
0000
0000
0000
0000
0000
0000
,
0000
0000
0000
0000
,
0000
0000
0000
0000
0300
0000
0210
0000
1000
0000
0010
0001
0010
0000
0001
0000
,
1000
0000
0001
1000
0301
0000
2100
0000
0010
0000
0100
0001
0100
0000
0010
0000
,
0100
0000
0010
0100
3010
0000
0201
0000
0010
0000
1000
0001
1000
0000
0001
0000
,
1000
0000
0010
0001
0310
0000
1002
0000
0010
0000
1000
0010
1000
0003
0210
0000
,
0001
0000
0010
1000
0310
0000
2001
0000
0010
0000
0001
0100
0001
0000
0100
0000
,
0010
0000
0001
0100
3001
0000
0120
0000
0100
0000
1000
0100
1000
0000
0100
0000
,
1000
0000
0001
1000
0031
0000
1000
0001
1000
0001
1000
0001
0010
1000
0010
1000
,
0010
1000
0100
0010
0100
0010
0100
0001
0100
0001
0100
0001
0010
0100
0010
0100
,
0010
1000
0001
1000
0001
1000
0001
0010
0100
1000
0100
0001
0010
0001
1000
0001
,
1000
0100
1000
0100
0010
0100
0010
0001
1000
0001
0010
0100
1000
0010
0001
0010
,
0100
0010
0001
1000
0001
0010
1001
0000
1001
0000
0200
0000
0302
0000
2003
0000
,
3002
0203
0320
1031
1001
0011
0110
1001
,
0000
0000
0100
0010
0100
0010
2001
0000
0100
0000
0001
0010
0001
0000
0010
0000
,
0100
0000
0010
0001
3010
0000
0102
0000
1000
0000
0100
0010
0100
0000
1000
0000
,
0100
0000
0010
0100
0013
0000
1000
0100
0010
0001
0010
0001
1000
0100
0010
0001
,
0010
0001
0010
0100
1000
0100
0001
0010
0100
1000
0100
1000
0001
0010
0100
1000
,
0100
1000
0100
0010
0001
0000
0210
0000
1000
0000
0010
0001
0010
0000
0001
0000
,
1000
0000
0001
1000
0301
0000
2100
0000
0010
0000
0100
0001
0100
0000
0010
0000
,
0100
0000
0010
0100
3010
0000
0201
0000
0010
0000
1000
0001
1000
0000
0001
0000
,
1000
0000
0010
0001
0310
0000
1002
0000
0010
0000
1000
0010
1000
0003
0210
0000
,
0001
0000
0010
1000
0310
0000
2001
0000
0010
0000
0001
0010
0001
0000
0100
0000
,
0010
0000
0001
0100
3001
0000
0120
0000
0100
0000
1000
0100
1000
0000
0100
0000
,
1000
0000
0001
1000
0031
0000
1000
0001
1000
0001
1000
0001
0010
1000
0010
1000
,
0010
1000
0100
0010
0100
0010
0100
0001
0100
0001
0100
0001
0010
0100
0010
0100
,
0010
1000
0001
1000
0001
1000
0001
0010
0100
1000
0100
0001
0010
0001
1000
0001
,
1000
0100
1000
0100
0010
0100
0010
0001
1000
0001
0010
0100
1000
0010
0001
0010
,
0100
0010
0001
1000
0001
0010
0100
1000
0001
1000
0100
1000
0010
1000
0100
1000
,
0010
1000
0100
1000
0010
1000
0202
0000
0000
0000
0000
0000
0303
0000
2020
0000
,
0000
0000
0000
0000
3030
0000
2001
0000
0100
0000
0001
0010
0001
0000
0010
0000
,
0100
0000
0010
0001
3010
0000
0102
0000
1000
0000
0100
0010
0100
0000
1000
0000
,
0100
0000
0010
0100
0013
0000
0001
0010
0100
0010
0001
1000
0001
0100
0010
0100
,
0001
0010
0001
0010
0100
0010
0101
0000
0000
0000
0110
0000
0000
0000
1001
0000
,
0000
0000
0110
0000
0000
0000
1001
0100
0010
0100
0010
0001
0010
0001
0010
0100
,
0010
0100
1000
0100
1000
0100
0010
0100
0010
0001
0010
0001
1000
0001
1000
0100
,
0010
0100
0010
0001
0100
0010
0201
0000
0001
0000
0000
0000
0001
0000
0000
0000
,
0001
0000
0000
0000
0301
0000
2010
0000
0010
0000
0000
0000
0010
0000
0100
0010
,
0100
0010
3100
0010
0000
0000
1001
0000
1001
0000
0000
0000
0100
0010
0100
0000
,
1000
0000
0000
0000
0001
0010
0001
0000
1000
0000
0110
0000
0000
0000
1010
0000
,
0000
0000
0011
0000
0000
0000
0110
0000
0110
0000
0000
0000
1000
0001
1000
0000
,
0010
0000
0000
0000
0000
0000
0000
0000
0000
0000
0000
0000
0000
0000
0000
0000
0100
0000
0000
0000
0010
0000
0000
0000
0100
0000
0000
0000
2000
3000
0000
0000
0200
0300
0000
0000
0020
0030
0000
0000
0002
0003
0000
0000
0020
0030
0000
0000
0000
0000
0000
0000
0000
0000
0000
0000
2000
3000
0000
0000
0200
0300
0000
0000
,
0020
0030
0000
0000
0200
0300
0000
0000
2000
3000
0000
0000
0000
0000
0000
0000
0000
0000
0000
0000
0000
0000
0000
0000
1001
0000
0000
0000
0000
0000
0000
0000
1001
0000
0000
0000
0000
0000
0000
0000
0000
0000
0000
0000
0000
0000
0000
0000
0100
0000
0000
0000
0010
0000
0000
0000
0100
0000
0000
0000
0000
0000
0000
0000
,
0001
0000
0000
0000
1000
0001
1000
0000
0010
0000
0101
0000
0000
0000
0011
0000
,
0000
0000
1001
0000
0000
0000
0110
0000
0110
0000
0000
0000
1000
0001
1000
0000
,
0100
0000
0000
0000
1000
0100
0010
0001
0010
0001
0010
0100
0010
0100
1000
0001
,
0000
0110
0000
0000
1001
1001
1001
1001
,
1001
0000
0000
0000
0110
0110
0110
0110
,
0110
0110
0000
0000
0000
0000
0000
0000
;
